Quantcast

Norah Jones: Feels Like Home CD Track Listing

A list by checkmate

Norah Jones Feels Like Home (2004)
(c)2004 Blue Note Records \nupc 724359095226\nProduced by Arif mardin and norah Jones\nRecorded and Mixed by Jay Newland\n\nPERFORMER "Norah Jones"\nTITLE "Feels Like Home"\nFILE "Range.wav" WAVE\n TRACK 01 AUDIO\n TITLE "Sunrise"\n INDEX 01 00:00:00\n TRACK 02 AUDIO\n TITLE "What Am I To You"\n INDEX 00 03:19:67\n INDEX 01 03:20:67\n TRACK 03 AUDIO\n TITLE "Those Sweet Words"\n INDEX 00 06:49:25\n INDEX 01 06:50:25\n TRACK 04 AUDIO\n TITLE "Carnival Town"\n INDEX 00 10:11:48\n INDEX 01 10:12:48\n TRACK 05 AUDIO\n TITLE "In The Morning"\n INDEX 01 13:24:45\n TRACK 06 AUDIO\n TITLE "Be Here To Love Me"\n INDEX 00 17:30:31\n INDEX 01 17:31:31\n TRACK 07 AUDIO\n TITLE "Creepin In"\n INDEX 00 20:59:02\n INDEX 01 21:00:02\n TRACK 08 AUDIO\n TITLE "Toes"\n INDEX 00 23:59:73\n INDEX 01 24:00:73\n TRACK 09 AUDIO\n TITLE "Humble Me"\n INDEX 00 27:47:30\n INDEX 01 27:48:30\n TRACK 10 AUDIO\n TITLE "Above Ground"\n INDEX 00 32:23:32\n INDEX 01 32:24:32\n TRACK 11 AUDIO\n TITLE "The long way home"\n INDEX 00 36:06:18\n INDEX 01 36:07:18\n TRACK 12 AUDIO\n TITLE "The prettiest thing"\n INDEX 00 39:19:02\n INDEX 01 39:20:02\n TRACK 13 AUDIO\n TITLE "Don't miss you at all"\n INDEX 00 43:10:01\n INDEX 01 43:11:01
This jazz cd contains 13 tracks and runs 46min 47sec.
Freedb: 980af50d

Category

: Music

Tags

:



  1. Norah Jones - Sunrise (03:21)
  2. Norah Jones - What Am I To You (03:32)
  3. Norah Jones - Those Sweet Words (03:24)
  4. Norah Jones - Carnival Town (03:11)
  5. Norah Jones - In The Morning (04:09)
  6. Norah Jones - Be Here To Love Me (03:30)
  7. Norah Jones - Creepin In (03:07)
  8. Norah Jones - Toes (03:47)
  9. Norah Jones - Humble Me (04:38)
  10. Norah Jones - Above Ground (03:45)
  11. Norah Jones - The long way home (03:15)
  12. Norah Jones - The prettiest thing (03:53)
  13. Norah Jones - Don't miss you at all (03:06)


Bookmark this list
Be the first to comment

Leave a comment

avatar
Your Name:
Your E-Mail: (will not be published)
Your URL: (optional)
Your Rating
Your Comment(No markup, no html. Plain text please.)